Image 01
profile-image

LenardKoen

Stefan T.
Helium

Plasma Themes by mcder 210 comments

I am interested in your current wallpapers. Can you share them? - Jun 05 2011
RecordStream

Amarok 2.x Scripts by Knoellchen 24 comments

I have problem with CUE file.

When I open it it looks like this:

TRACK 01 AUDIO
TITLE "��E"
PERFORMER "��I"
INDEX 01 00:00:00
TRACK 02 AUDIO
TITLE "��M"
PERFORMER "��H"
INDEX 01 02:33:00
TRACK 03 AUDIO
TITLE "��L"
PERFORMER "��C"
INDEX 01 08:15:00
TRACK 04 AUDIO
TITLE "��T"
PERFORMER "��P"
INDEX 01 12:07:00

How to fix this?

Amarok 2.2.2, KDE 4.4 RC1 - Jan 17 2010
Milky Suite (aka Milky Air)

QtCurve by Goamaus 24 comments

I did it. I didn't know that I need to log out before changes are applied.

Thank you. - Aug 13 2009
Milky Suite (aka Milky Air)

QtCurve by Goamaus 24 comments

Can you remove grey color from menus, with no other changes in theme? (MilkyAir 1) - Aug 08 2009
1.Open/Save dialog

2. Click 'System Settings' - it works, click Appearance - it doesn't work. - Aug 05 2009
I have KDE 4.3 installed on Kubuntu 9.04.

I have compiled QtCurve myself, but single click doesn't work in some cases.

It worked fine in Kubuntu 9.04 with KDE 4.2.4. - Aug 05 2009
I have KDE 4.3 installed on Kubuntu 9.04.

I have compiled QtCurve myself, but single click doesn't work always.

It worked fine in Kubuntu 9.04 with KDE 4.2.4. - Aug 05 2009
Milky Suite (aka Milky Air)

QtCurve by Goamaus 24 comments

One of the best that I have seen so far.

Please release it. I love it.

What icons are you using?

Thank you!

P.s.
I am using soft2 now, but QtCurve doesn't work very good on KDE 4.3 RC3 (Kubuntu 9.04). - Aug 02 2009
Discogs

Amarok 2.x Scripts
by gaillou

5 .9
Jan 17 2010
SHOUTcast service

Amarok 2.x Scripts
by cotko

6 .1
Jan 17 2010
RecordStream

Amarok 2.x Scripts
by Knoellchen

6 .3
Jan 17 2010